The.Big.Bang.Theory.S10E12.PROPER.VOSTFR.720p.HDTV.x264-ARK01 (S:51/L:8)






       Description du streaming:   >>> Cliquez-ici pour Télécharger <<<

Regarder en Streaming





General
Complete name               : The.Big.Bang.Theory.S10E12.VOSTFR.720p.HDTV.x264-ARK01.mkv
Format                      : Matroska
Format version              : Version 4 / Version 2
File size                   : 402 MiB
Duration                    : 21mn 6s
Overall bit rate            : 2 666 Kbps
Encoded date                : UTC 2017-01-10 08:12:48
Writing application         : mkvmerge v8.3.0 ('Over the Horizon') 64bit
Writing library             : libebml v1.3.1 + libmatroska v1.4.2

Video
ID                          : 1
Format                      : AVC
Format/Info                 : Advanced Video Codec
Format profile              : [email protected]
Format settings, CABAC      : Yes
Format settings, ReFrames   : 8 frames
Codec ID                    : V_MPEG4/ISO/AVC
Duration                    : 21mn 6s
Bit rate                    : 2 229 Kbps
Width                       : 1 280 pixels
Height                      : 720 pixels
Display aspect ratio        : 16:9
Frame rate mode             : Constant
Frame rate                  : 23.976 fps
Color space                 : YUV
Chroma subsampling          : 4:2:0
Bit depth                   : 8 bits
Scan type                   : Progressive
Bits/(Pixel*Frame)          : 0.101
Stream size                 : 336 MiB (84%)
Writing library             : x264 core 148 r2721 72d53ab
Language                    : English
Default                     : Yes
Forced                      : No

Audio
ID                          : 2
Format                      : AC-3
Format/Info                 : Audio Coding 3
Mode extension              : CM (complete main)
Format settings, Endianness : Big
Codec ID                    : A_AC3
Duration                    : 21mn 6s
Bit rate mode               : Constant
Bit rate                    : 384 Kbps
Channel(s)                  : 6 channels
Channel positions           : Front: L C R, Side: L R, LFE
Sampling rate               : 48.0 KHz
Compression mode            : Lossy
Delay relative to video     : 100ms
Stream size                 : 58.0 MiB (14%)
Language                    : English
Default                     : Yes
Forced                      : No

Text #1
ID                          : 3
Format                      : UTF-8
Codec ID                    : S_TEXT/UTF8
Codec ID/Info               : UTF-8 Plain Text
Language                    : French
Default                     : Yes
Forced                      : No

Text #2
ID                          : 4
Format                      : UTF-8
Codec ID                    : S_TEXT/UTF8
Codec ID/Info               : UTF-8 Plain Text
Title                       : TAG
Language                    : French
Default                     : No
Forced                      : No

Text #3
ID                          : 5
Format                      : UTF-8
Codec ID                    : S_TEXT/UTF8
Codec ID/Info               : UTF-8 Plain Text
Language                    : English
Default                     : No
Forced                      : No

Sources : DIMENSION - Giggity Team



Ajouter un commentaire